Jump to content


Photo

xtrend et 4000 und mkv


  • Please log in to reply
4 replies to this topic

#1 cobolus

  • Member
  • 12 posts

0
Neutral

Posted 11 March 2013 - 09:13

Hi !

habe auf meinem xtrend 4000 verschiedene MKVs ausprobiert aber die meisten 1080p mkvs werden nicht abgespielt auf aktuellem openpli 3.0.
Hier die infos von mediainfo:

Funktionierender 1080p:

Format : Matroska
Format version : Version 2
File size : 7.65 GiB
Duration : 1h 51mn
Overall bit rate : 9 817 Kbps
Encoded date : UTC 2011-05-10 20:09:54
Writing application : mkvmerge v4.7.0 ('Just Like You Imagined') built on Apr 21 2011 01:13:14
Writing library : libebml v1.2.0 + libmatroska v1.1.0

Video
ID : 1
Format : AVC
Format/Info : Advanced Video Codec
Format profile : High@L4.1
Format settings, CABAC : Yes
Format settings, ReFrames : 4 frames
Codec ID : V_MPEG4/ISO/AVC
Duration : 1h 51mn
Bit rate : 9 177 Kbps
Width : 1 920 pixels
Height : 1 080 pixels
Display aspect ratio : 16:9
Frame rate mode : Constant
Frame rate : 23.976 fps
Color space : YUV
Chroma subsampling : 4:2:0
Bit depth : 8 bits
Scan type : Progressive
Bits/(Pixel*Frame) : 0.185
Stream size : 7.00 GiB (91%)
Writing library : x264 core 115 r1947 b5a8ad7
Encoding settings : cabac=1 / ref=4 / deblock=1:0:0 / analyse=0x3:0x133 / me=umh / subme=7 / psy=1 / psy_rd=1.00:0.00 / mixed_ref=1 / me_range=16 / chroma_me=1 / trellis=1 / 8x8dct=1 / cqm=0 / deadzone=21,11 / fast_pskip=0 / chroma_qp_offset=-2 / threads=6 / sliced_threads=0 / nr=0 / decimate=1 / interlaced=0 / bluray_compat=0 / constrained_intra=0 / bframes=3 / b_pyramid=2 / b_adapt=1 / b_bias=0 / direct=1 / weightb=1 / open_gop=0 / weightp=2 / keyint=250 / keyint_min=23 / scenecut=40 / intra_refresh=0 / rc_lookahead=40 / rc=2pass / mbtree=1 / bitrate=9177 / ratetol=1.0 / qcomp=0.60 / qpmin=10 / qpmax=51 / qpstep=4 / cplxblur=20.0 / qblur=0.5 / ip_ratio=1.40 / aq=1:1.00
Default : Yes
Forced : No

Audio
ID : 2
Format : AC-3
Format/Info : Audio Coding 3
Mode extension : CM (complete main)
Format settings, Endianness : Big
Codec ID : A_AC3
Duration : 1h 51mn
Bit rate mode : Constant
Bit rate : 640 Kbps
Channel(s) : 6 channels
Channel positions : Front: L C R, Side: L R, LFE
Sampling rate : 48.0 KHz
Bit depth : 16 bits
Compression mode : Lossy
Stream size : 511 MiB (7%)
Default : Yes
Forced : No



Nicht funktionierende 1080p mkvs:

#1:

Format : Matroska
Format version : Version 2
File size : 7.27 GiB
Duration : 1h 49mn
Overall bit rate : 9 519 Kbps
Encoded date : UTC 2010-05-04 09:11:48
Writing application : mkvmerge v3.3.0 ('Language') gebaut am Mar 24 2010 14:59:24
Writing library : libebml v0.8.0 + libmatroska v0.9.0

Video
ID : 1
Format : AVC
Format/Info : Advanced Video Codec
Format profile : High@L4.1
Format settings, CABAC : Yes
Format settings, ReFrames : 4 frames
Codec ID : V_MPEG4/ISO/AVC
Duration : 1h 49mn
Bit rate : 7 180 Kbps
Width : 1 920 pixels
Height : 1 040 pixels
Display aspect ratio : 1.85:1
Frame rate mode : Constant
Frame rate : 23.976 fps
Color space : YUV
Chroma subsampling : 4:2:0
Bit depth : 8 bits
Scan type : Progressive
Bits/(Pixel*Frame) : 0.150
Stream size : 5.48 GiB (75%)
Writing library : x264 core 94 r1570 d9db8b3
Encoding settings : cabac=1 / ref=4 / deblock=1:0:0 / analyse=0x3:0x113 / me=umh / subme=7 / psy=1 / psy_rd=1.00:0.15 / mixed_ref=1 / me_range=16 / chroma_me=1 / trellis=1 / 8x8dct=1 / cqm=0 / deadzone=21,11 / fast_pskip=0 / chroma_qp_offset=-3 / threads=12 / sliced_threads=0 / nr=0 / decimate=1 / interlaced=0 / constrained_intra=0 / bframes=3 / b_pyramid=2 / b_adapt=1 / b_bias=0 / direct=1 / wpredb=1 / wpredp=2 / keyint=250 / keyint_min=25 / scenecut=40 / intra_refresh=0 / rc_lookahead=40 / rc=crf / mbtree=1 / crf=20.0 / qcomp=0.60 / qpmin=10 / qpmax=51 / qpstep=4 / ip_ratio=1.40 / aq=1:1.00
Language : German
Default : Yes
Forced : No

Audio #1
ID : 2
Format : AC-3
Format/Info : Audio Coding 3
Mode extension : CM (complete main)
Format settings, Endianness : Big
Codec ID : A_AC3
Duration : 1h 49mn
Bit rate mode : Constant
Bit rate : 640 Kbps
Channel(s) : 6 channels
Channel positions : Front: L C R, Side: L R, LFE
Sampling rate : 48.0 KHz
Bit depth : 16 bits
Compression mode : Lossy
Stream size : 501 MiB (7%)
Language : German
Default : Yes
Forced : No

Audio #2
ID : 3
Format : DTS
Format/Info : Digital Theater Systems
Mode : 16
Format settings, Endianness : Big
Codec ID : A_DTS
Duration : 1h 49mn
Bit rate mode : Constant
Bit rate : 1 509 Kbps
Channel(s) : 6 channels
Channel positions : Front: L C R, Side: L R, LFE
Sampling rate : 48.0 KHz
Bit depth : 24 bits
Compression mode : Lossy
Stream size : 1.15 GiB (16%)
Language : English
Default : No
Forced : No

Text
ID : 4
Format : UTF-8
Codec ID : S_TEXT/UTF8
Codec ID/Info : UTF-8 Plain Text
Language : German
Default : Yes
Forced : No

Menu
00:00:00.000 : en:00:00:00.000
00:07:41.294 : en:00:07:41.294
00:11:07.000 : en:00:11:07.000
00:18:17.513 : en:00:18:17.513
00:25:44.042 : en:00:25:44.042
00:31:02.235 : en:00:31:02.235
00:36:05.163 : en:00:36:05.163
00:43:00.953 : en:00:43:00.953
00:49:15.953 : en:00:49:15.953
00:53:20.030 : en:00:53:20.030
01:00:00.430 : en:01:00:00.430
01:07:38.763 : en:01:07:38.763
01:17:39.572 : en:01:17:39.572
01:24:48.125 : en:01:24:48.125
01:28:41.399 : en:01:28:41.399
01:33:25.683 : en:01:33:25.683
01:40:34.695 : en:01:40:34.695
01:44:08.242 : en:01:44:08.242

#2:

Format : Matroska
Format version : Version 2
File size : 11.8 GiB
Duration : 2h 5mn
Overall bit rate : 13.4 Mbps
Encoded date : UTC 2010-10-20 17:25:57
Writing application : mkvmerge v4.3.0 ('Escape from the Island') gebaut am Sep 5 2010 10:30:51
Writing library : libebml v1.0.0 + libmatroska v1.0.0

Video
ID : 1
Format : AVC
Format/Info : Advanced Video Codec
Format profile : High@L4.1
Format settings, CABAC : Yes
Format settings, ReFrames : 4 frames
Muxing mode : Header stripping
Codec ID : V_MPEG4/ISO/AVC
Duration : 2h 5mn
Bit rate : 10.9 Mbps
Width : 1 920 pixels
Height : 1 040 pixels
Display aspect ratio : 1.85:1
Frame rate mode : Constant
Frame rate : 23.976 fps
Color space : YUV
Chroma subsampling : 4:2:0
Bit depth : 8 bits
Scan type : Progressive
Bits/(Pixel*Frame) : 0.227
Stream size : 9.53 GiB (81%)
Writing library : x264 core 105 r1732 2b04482
Encoding settings : cabac=1 / ref=4 / deblock=1:-3:-3 / analyse=0x3:0x133 / me=umh / subme=7 / psy=1 / psy_rd=1.00:0.20 / mixed_ref=1 / me_range=16 / chroma_me=1 / trellis=1 / 8x8dct=1 / cqm=0 / deadzone=21,11 / fast_pskip=0 / chroma_qp_offset=-3 / threads=12 / sliced_threads=0 / nr=0 / decimate=1 / interlaced=0 / constrained_intra=0 / bframes=3 / b_pyramid=2 / b_adapt=2 / b_bias=0 / direct=1 / weightb=1 / open_gop=0 / weightp=2 / keyint=250 / keyint_min=23 / scenecut=40 / intra_refresh=0 / rc_lookahead=40 / rc=crf / mbtree=1 / crf=20.0 / qcomp=0.60 / qpmin=10 / qpmax=51 / qpstep=4 / ip_ratio=1.40 / aq=1:1.00
Default : Yes
Forced : No

Audio #1
ID : 2
Format : DTS
Format/Info : Digital Theater Systems
Mode : 16
Format settings, Endianness : Big
Muxing mode : Header stripping
Codec ID : A_DTS
Duration : 2h 5mn
Bit rate mode : Constant
Bit rate : 768 Kbps
Channel(s) : 6 channels
Channel positions : Front: L C R, Side: L R, LFE
Sampling rate : 48.0 KHz
Bit depth : 24 bits
Compression mode : Lossy
Stream size : 691 MiB (6%)
Title : DTS
Language : German
Default : Yes
Forced : No

Audio #2
ID : 3
Format : DTS
Format/Info : Digital Theater Systems
Mode : 16
Format settings, Endianness : Big
Muxing mode : Header stripping
Codec ID : A_DTS
Duration : 2h 5mn
Bit rate mode : Constant
Bit rate : 1 509 Kbps
Channel(s) : 6 channels
Channel positions : Front: L C R, Side: L R, LFE
Sampling rate : 48.0 KHz
Bit depth : 24 bits
Compression mode : Lossy
Stream size : 1.33 GiB (11%)
Title : DTS
Language : English
Default : No
Forced : No

Text
ID : 4
Format : UTF-8
Codec ID : S_TEXT/UTF8
Codec ID/Info : UTF-8 Plain Text
Title : SUBTiTLE
Language : German
Default : Yes
Forced : No

Menu
00:00:00.000 : de:00:00:00.000
00:04:26.016 : de:00:04:26.016
00:09:04.544 : de:00:09:04.544
00:13:22.218 : de:00:13:22.218
00:23:20.899 : de:00:23:20.899
00:26:19.620 : de:00:26:19.620
00:28:40.052 : de:00:28:40.052
00:33:27.130 : de:00:33:27.130
00:37:06.307 : de:00:37:06.307
00:40:42.106 : de:00:40:42.106
00:44:05.726 : de:00:44:05.726
00:52:41.867 : de:00:52:41.867
00:56:45.235 : de:00:56:45.235
00:59:49.002 : de:00:59:49.002
01:05:00.563 : de:01:05:00.563
01:07:14.489 : de:01:07:14.489
01:13:18.436 : de:01:13:18.436
01:19:43.987 : de:01:19:43.987
01:22:11.760 : de:01:22:11.760
01:30:31.176 : de:01:30:31.176
01:32:16.990 : de:01:32:16.990
01:34:19.737 : de:01:34:19.737
01:38:26.525 : de:01:38:26.525
01:42:47.119 : de:01:42:47.119
01:45:26.195 : de:01:45:26.195
01:47:00.164 : de:01:47:00.164
01:53:07.239 : de:01:53:07.239
01:59:06.890 : de:01:59:06.890

#3:

Format : Matroska
Format version : Version 2
File size : 11.4 GiB
Duration : 2h 32mn
Overall bit rate : 10.7 Mbps
Encoded date : UTC 2011-10-14 10:37:15
Writing application : mkvmerge v5.0.0 ('Die Wahre Liebe') built on Sep 25 2011 20:33:49
Writing library : libebml v1.2.2 + libmatroska v1.3.0

Video
ID : 1
Format : AVC
Format/Info : Advanced Video Codec
Format profile : High@L4.1
Format settings, CABAC : Yes
Format settings, ReFrames : 4 frames
Codec ID : V_MPEG4/ISO/AVC
Duration : 2h 32mn
Bit rate : 10.3 Mbps
Width : 1 920 pixels
Height : 1 080 pixels
Display aspect ratio : 16:9
Frame rate mode : Constant
Frame rate : 23.976 fps
Color space : YUV
Chroma subsampling : 4:2:0
Bit depth : 8 bits
Scan type : Progressive
Bits/(Pixel*Frame) : 0.207
Stream size : 10.7 GiB (94%)
Writing library : x264 core 115 r1937 aa21558
Encoding settings : cabac=1 / ref=4 / deblock=1:-3:-3 / analyse=0x3:0x113 / me=umh / subme=10 / psy=0 / mixed_ref=1 / me_range=32 / chroma_me=1 / trellis=2 / 8x8dct=1 / cqm=0 / deadzone=21,11 / fast_pskip=1 / chroma_qp_offset=0 / threads=6 / sliced_threads=0 / nr=0 / decimate=1 / interlaced=0 / bluray_compat=0 / constrained_intra=0 / bframes=5 / b_pyramid=2 / b_adapt=2 / b_bias=0 / direct=3 / weightb=1 / open_gop=0 / weightp=2 / keyint=250 / keyint_min=23 / scenecut=40 / intra_refresh=0 / rc_lookahead=80 / rc=2pass / mbtree=1 / bitrate=10280 / ratetol=1.0 / qcomp=0.80 / qpmin=0 / qpmax=69 / qpstep=4 / cplxblur=20.0 / qblur=0.5 / ip_ratio=1.40 / aq=1:0.80
Language : English
Default : No
Forced : No

Audio
ID : 2
Format : AC-3
Format/Info : Audio Coding 3
Mode extension : CM (complete main)
Format settings, Endianness : Big
Codec ID : A_AC3
Duration : 2h 32mn
Bit rate mode : Constant
Bit rate : 448 Kbps
Channel(s) : 6 channels
Channel positions : Front: L C R, Side: L R, LFE
Sampling rate : 48.0 KHz
Bit depth : 16 bits
Compression mode : Lossy
Stream size : 488 MiB (4%)
Language : German
Default : No
Forced : No



irgendjemand ne idee warum das nicht funktioniert ?

Edited by cobolus, 11 March 2013 - 09:18.


Re: xtrend et 4000 und mkv #2 pieterg

  • PLi® Core member
  • 32,766 posts

+245
Excellent

Posted 11 March 2013 - 10:15

das problem ist die DTS audio track

Re: xtrend et 4000 und mkv #3 cobolus

  • Member
  • 12 posts

0
Neutral

Posted 11 March 2013 - 10:26

kann die nicht ignoriert werden bzw. gibt es da keine downmix möglichkeiten da mein 3 jahre alter popcorn hour a-110 das alles ohne probleme abspielen kann

Re: xtrend et 4000 und mkv #4 vegas

  • Member
  • 13 posts

0
Neutral

Posted 22 March 2013 - 21:45

Vor allem da es bis letztes Jahr im März problemlos funktionierte.
Würde ja auch zu gerne eine neue Version benutzen, aber ohne Downmix für mich unbrauchbar.
Ist echt traurig das sich darum keiner mehr kümmert ..... :(

Re: xtrend et 4000 und mkv #5 pieterg

  • PLi® Core member
  • 32,766 posts

+245
Excellent

Posted 23 March 2013 - 01:43

Vor allem da es bis letztes Jahr im März problemlos funktionierte.


et4000 gab's nicht letztes Jahr März




0 user(s) are reading this topic

0 members, 0 guests, 0 anonymous users