Jump to content


Photo

ET8000 streaming encrypted channels


  • Please log in to reply
6 replies to this topic

#1 atilaks

  • Senior Member
  • 245 posts

+5
Neutral

Posted 2 September 2014 - 14:20

Hi,

 

I have just noticed that some encrypted channels are not decrypted when I stream them via OpenWebif, but they are decrypted when I watch them on the box.

For example: 1:0:1:3E26:2EE0:13E:820000:0:0:0:

 

What am I missing or doing wrong?

 

I also have experienced that some of my new recordings are no longer decrypted and I cannot watch them on PC.

 

ormat                                   : MPEG-TS
File size                                : 8.53 MiB
Duration                                 : 8s 42ms
Start time                               : UTC 2014-09-02 13:07:14
End time                                 : UTC 2014-09-02 13:07:20
Overall bit rate mode                    : Variable
Overall bit rate                         : 8 715 Kbps
Country                                  : POL
Timezone                                 : +01:00:00

Video
ID                                       : 272 (0x110)
Menu ID                                  : 15910 (0x3E26)
Format                                   : AVC
Format/Info                              : Advanced Video Codec
Format profile                           : High@L4.0
Format settings, CABAC                   : Yes
Format settings, ReFrames                : 3 frames
Codec ID                                 : 27
Duration                                 : 6s 920ms
Bit rate                                 : 8 090 Kbps
Width                                    : 1 920 pixels
Height                                   : 1 080 pixels
Display aspect ratio                     : 16:9
Frame rate                               : 25.000 fps
Standard                                 : Component
Color space                              : YUV
Chroma subsampling                       : 4:2:0
Bit depth                                : 8 bits
Scan type                                : Interlaced
Scan order                               : Top Field First
Bits/(Pixel*Frame)                       : 0.156
Stream size                              : 6.67 MiB (78%)
Encryption                               : Encrypted
Color primaries                          : BT.709
Transfer characteristics                 : BT.709
Matrix coefficients                      : BT.709

Audio
ID                                       : 528 (0x210)
Menu ID                                  : 15910 (0x3E26)
Format                                   : MPEG Audio
Format version                           : Version 1
Format profile                           : Layer 2
Codec ID                                 : 4
Duration                                 : 8s 40ms
Bit rate mode                            : Constant
Bit rate                                 : 192 Kbps
Channel(s)                               : 2 channels
Sampling rate                            : 48.0 KHz
Compression mode                         : Lossy
Delay relative to video                  : -601ms
Stream size                              : 188 KiB (2%)
Encryption                               : Encrypted

 



Re: ET8000 streaming encrypted channels #2 Erik Slagter

  • PLi® Core member
  • 45,947 posts

+513
Excellent

Posted 2 September 2014 - 14:35

There is a configuration option "descramble http streams", maybe you have set it to "off"?


* Wavefrontier T90 with 28E/23E/19E/13E/9E/4.8E/0.8W/5W via SCR switches 2 x 2 x 6 user bands
* Ziggo digital cable TV (FTA)
I don't read PM -> if you have something to ask or to report, do it in the forum so others can benefit. I don't take freelance jobs.
Ik lees geen PM -> als je iets te vragen of te melden hebt, doe het op het forum, zodat anderen er ook wat aan hebben.

Re: ET8000 streaming encrypted channels #3 blzr

  • PLi® Core member
  • 2,055 posts

+100
Excellent

Posted 2 September 2014 - 14:41

nope, these channels are not encrypted, just vlc can't play them unless you specify SID of such channel...
this Polish provider (Cyfrowy Polsat) broadcasts services from its transponders with a shared PMT

in OpenWebif settings you can set option 'add service name to stream information' to 'yes', and you should be able to watch these problematic channels through streaming
True sarcasm doesn't need green font...

Re: ET8000 streaming encrypted channels #4 Robinson

  • Senior Member
  • 2,523 posts

+30
Good

Posted 2 September 2014 - 14:42

Read from this: http://openpli.org/f...sat#entry265948


ET9000, OpenPLi 4.0, 13E, 19E

HD51, OpenPLi 6.2, 75E - 30W


Re: ET8000 streaming encrypted channels #5 atilaks

  • Senior Member
  • 245 posts

+5
Neutral

Posted 2 September 2014 - 15:20

@blzr @Robinson

That's it! Thanks!

 

@Erik

I do have descramble http streams set to off.

 

I do however still have a problem when I record these channels. I cannot play them in VLC and mediaInfo says channels are encrypted... how can I fix this?



Re: ET8000 streaming encrypted channels #6 blzr

  • PLi® Core member
  • 2,055 posts

+100
Excellent

Posted 2 September 2014 - 19:15

you mean playback recordings on the PC with vlc?
that's the same story then...
for vlc you have to specify the recorded channel's SID (decimal), either by opening .ts file with an extra option (:program=1234), or by putting it into m3u playlist created for such a problematic recording (#EXTVLCOPT:program=1234)
and although there is dedicated option in the vlc interface for such situations Playback > Program > choice list of available sids, but for whatever reason, after selecting a correct SID you have to wait about a minute or more for a playback to actually start...

so, long story short, I would suggest to use other media player for these movies, for me for example (Gnome)MPlayer opens these recordings with no problems...
True sarcasm doesn't need green font...

Re: ET8000 streaming encrypted channels #7 atilaks

  • Senior Member
  • 245 posts

+5
Neutral

Posted 2 September 2014 - 21:11

Perfect! Exactly what I needed :)






0 user(s) are reading this topic

0 members, 0 guests, 0 anonymous users