Jump to content


atilaks

Member Since 22 Nov 2010
Offline Last Active 01 Apr 2020 21:20
-----

Topics I've Started

polish national characters in teletext subtitles

19 February 2015 - 19:04

Hello,

 

I tried to search forum for an answer, but I couldn't find any. I have a problem with polish teletext subtitles on TVN HD (11508.00 V, 13E). National characters are not displayed correctly. I found no option in settings to force subtitle's charset. Am I missing something? 

disable dvb subtitles
disable teletext subtitles page ffffffffffffffff (und)
enable teletext subtitle page 777 (und)0
action ->  InfobarTeletextActions startTeletext
[SKIN] Parsing embedded skin <embedded-in-'ShellStarter'>
action ->  TeletextActions exit
 - double buffering available!
action ->  SetupActions cancel
unicode U+ 1c1 not present
unicode U+ 1c1 not present

[Denmark] channels have been moved

5 February 2015 - 18:51

Hi Willy,

 

Could you add the following to channels-denmark?

 

<!-- Denmark Cable TV YouSee Odense -->

<channel id="DR2.dk">1:0:1:488:88E:FE00:FFFF0000:0:0:0:</channel> <!-- DR2 -->

<channel id="TV3.dk">1:0:19:47E:7D0:FE00:FFFF0000:0:0:0:</channel> <!-- TV3 HD -->
<channel id="dk4.dk">1:0:19:474:7D0:FE00:FFFF0000:0:0:0:</channel> <!-- DK4 -->
<channel id="Kanal5.dk">1:0:19:46A:7D0:FE00:FFFF0000:0:0:0:</channel> <!-- K5 HD -->
 
And these can be deleted:
 
<!-- Denmark Cable TV YouSee Odense -->
<channel id="DR2.dk">1:0:1:460:7D0:FE00:FFFF0000:0:0:0:</channel> <!-- DR2 -->
<channel id="TV3.dk">1:0:19:960:41A:FE00:FFFF0000:0:0:0:</channel> <!-- TV3 HD -->
<channel id="dk4.dk">1:0:19:1518:8AC:FE00:FFFF0000:0:0:0:</channel> <!-- DK4 -->
<channel id="TV3.dk">1:0:1:D2:3F2:FE00:FFFF0000:0:0:0:</channel> <!-- TV 3 -->
<channel id="dk4.dk">1:0:1:29E:488:FE00:FFFF0000:0:0:0:</channel> <!-- dk 4 -->
<channel id="Kanal5.dk">1:0:1:BB8:42E:FE00:FFFF0000:0:0:0:</channel> <!-- K5 HD -->

 

Thanks in advance!


ET8000 streaming encrypted channels

2 September 2014 - 14:20

Hi,

 

I have just noticed that some encrypted channels are not decrypted when I stream them via OpenWebif, but they are decrypted when I watch them on the box.

For example: 1:0:1:3E26:2EE0:13E:820000:0:0:0:

 

What am I missing or doing wrong?

 

I also have experienced that some of my new recordings are no longer decrypted and I cannot watch them on PC.

 

ormat                                   : MPEG-TS
File size                                : 8.53 MiB
Duration                                 : 8s 42ms
Start time                               : UTC 2014-09-02 13:07:14
End time                                 : UTC 2014-09-02 13:07:20
Overall bit rate mode                    : Variable
Overall bit rate                         : 8 715 Kbps
Country                                  : POL
Timezone                                 : +01:00:00

Video
ID                                       : 272 (0x110)
Menu ID                                  : 15910 (0x3E26)
Format                                   : AVC
Format/Info                              : Advanced Video Codec
Format profile                           : High@L4.0
Format settings, CABAC                   : Yes
Format settings, ReFrames                : 3 frames
Codec ID                                 : 27
Duration                                 : 6s 920ms
Bit rate                                 : 8 090 Kbps
Width                                    : 1 920 pixels
Height                                   : 1 080 pixels
Display aspect ratio                     : 16:9
Frame rate                               : 25.000 fps
Standard                                 : Component
Color space                              : YUV
Chroma subsampling                       : 4:2:0
Bit depth                                : 8 bits
Scan type                                : Interlaced
Scan order                               : Top Field First
Bits/(Pixel*Frame)                       : 0.156
Stream size                              : 6.67 MiB (78%)
Encryption                               : Encrypted
Color primaries                          : BT.709
Transfer characteristics                 : BT.709
Matrix coefficients                      : BT.709

Audio
ID                                       : 528 (0x210)
Menu ID                                  : 15910 (0x3E26)
Format                                   : MPEG Audio
Format version                           : Version 1
Format profile                           : Layer 2
Codec ID                                 : 4
Duration                                 : 8s 40ms
Bit rate mode                            : Constant
Bit rate                                 : 192 Kbps
Channel(s)                               : 2 channels
Sampling rate                            : 48.0 KHz
Compression mode                         : Lossy
Delay relative to video                  : -601ms
Stream size                              : 188 KiB (2%)
Encryption                               : Encrypted

 


Streaming - every 2-3 sec video and audio freezes

18 July 2014 - 14:03

Hi,

 

I have a problem with streaming (over wired LAN) a specific HD channel (bitrate 7-8 Mb). Every 2-3 sec video and audio freezes. Enigma2 says

 

eFilePushThreadRecorder] Warning: All write buffers busy
[eDVBRecordFileThread] cancelling
[eDVBRecordStreamThread] failed to cancel, killing all waiting IO
[eDVBRecordFileThread] poll: aio_return returned failure: Interrupted system call
[eDVBRecordFileThread] poll: aio_return returned failure: Interrupted system call
[eDVBRecordFileThread] poll: aio_return returned failure: Interrupted system call
[eDVBRecordFileThread] Waiting for I/O to complete
[eFilePushThreadRecorder] Warning: All write buffers busy
[eDVBRecordFileThread] cancelling
[eDVBRecordStreamThread] failed to cancel, killing all waiting IO
[eDVBRecordFileThread] poll: aio_return returned failure: Interrupted system call
[eDVBRecordFileThread] poll: aio_return returned failure: Interrupted system call
[eDVBRecordFileThread] poll: aio_return returned failure: Interrupted system call
[eDVBRecordFileThread] Waiting for I/O to complete
[eFilePushThreadRecorder] Warning: All write buffers busy
[eDVBRecordFileThread] cancelling
[eDVBRecordStreamThread] failed to cancel, killing all waiting IO
[eDVBRecordFileThread] poll: aio_return returned failure: Interrupted system call
[eDVBRecordFileThread] poll: aio_return returned failure: Interrupted system call
[eDVBRecordFileThread] poll: aio_return returned failure: Interrupted system call
[eDVBRecordFileThread] Waiting for I/O to complete

I do experience buffer-underrun on other HD channels as well, but not as often.

 

What can I do to get streaming to work?


ET8000 transcoding

21 June 2014 - 21:00

Hi,

 

Did someone get transcoding to work on ET8000?

 

I am trying VLC with the following URL, but it doesn't work. All I can see in enigma2.log is 'stop streaming'.

http://192.168.13.12:8001/1:0:1:3ABD:514:13E:820000:0:0:0:?bitrate=512000?width=720?height=576?framerate=25000?interlaced=0?aspectratio=0

Raw stream works just fine

http://192.168.13.12:8001/1:0:1:3ABD:514:13E:820000:0:0:0: